Mr.Popper's Penguins 2011 BluRay 1080p CZ,EN

Filmy v Blu-Ray kvalite
Napísať odpoveď
Reysanger
Registrovaní užívatelia
Príspevky: 67
Dátum registrácie: 04 Feb 2011, 15:23

Mr.Popper's Penguins 2011 BluRay 1080p CZ,EN

Príspevok od užívateľa Reysanger » 22 Nov 2011, 18:01

Obrázok
Mr.Popper's.Penguins.2011.BluRay.1080p.x264.DTS-HDChina CZ,EN 5.1


Obrázok
Obrázok



Obrázok

Kód: Vybrať všetko

Format : Matroska
Format version : Version 2
File size : 7.69 GiB
Duration : 1h 34mn
Overall bit rate : 11.7 Mbps
Encoded date : UTC 2011-11-19 23:55:12
Writing application : mkvmerge v5.0.1 ('Es ist Sommer') built on Oct 9 2011 11:55:43
Writing library : libebml v1.2.2 + libmatroska v1.3.0

Video
ID : 1
Format : AVC
Format/Info : Advanced Video Codec
Format profile : High@L4.1
Format settings, CABAC : Yes
Format settings, ReFrames : 4 frames
Codec ID : V_MPEG4/ISO/AVC
Duration : 1h 34mn
Bit rate : 9 783 Kbps
Width : 1 920 pixels
Height : 1 040 pixels
Display aspect ratio : 16:9
Frame rate : 23.976 fps
Color space : YUV
Chroma subsampling : 4:2:0
Bit depth : 8 bits
Scan type : Progressive
Bits/(Pixel*Frame) : 0.204
Stream size : 6.29 GiB (82%)
Writing library : x264 core 116 r2074 2641b9e
Encoding settings : cabac=1 / ref=4 / deblock=1:-3:-3 / analyse=0x3:0x133 / me=umh / subme=10 / psy=1 / psy_rd=1.00:0.05 / mixed_ref=1 / me_range=64 / chroma_me=1 / trellis=2 / 8x8dct=1 / cqm=0 / deadzone=21,11 / fast_pskip=1 / chroma_qp_offset=-3 / threads=9 / sliced_threads=0 / nr=0 / decimate=0 / interlaced=0 / bluray_compat=0 / constrained_intra=0 / bframes=8 / b_pyramid=2 / b_adapt=2 / b_bias=0 / direct=3 / weightb=1 / open_gop=0 / weightp=2 / keyint=250 / keyint_min=2 / scenecut=40 / intra_refresh=0 / rc_lookahead=60 / rc=2pass / mbtree=1 / bitrate=9783 / ratetol=1.0 / qcomp=0.70 / qpmin=0 / qpmax=69 / qpstep=4 / cplxblur=20.0 / qblur=0.5 / vbv_maxrate=50000 / vbv_bufsize=40000 / nal_hrd=none / ip_ratio=1.40 / aq=2:1.00
Language : English

Audio #1
ID : 2
Format : AC-3
Format/Info : Audio Coding 3
Mode extension : CM (complete main)
Codec ID : A_AC3
Duration : 1h 34mn
Bit rate mode : Constant
Bit rate : 384 Kbps
Channel(s) : 6 channels
Channel positions : Front: L C R, Side: L R, LFE
Sampling rate : 48.0 KHz
Bit depth : 16 bits
Compression mode : Lossy
Stream size : 259 MiB (3%)
Title : cz
Language : Czech

Audio #2
ID : 3
Format : DTS
Format/Info : Digital Theater Systems
Codec ID : A_DTS
Duration : 1h 34mn
Bit rate mode : Constant
Bit rate : 1 510 Kbps
Channel(s) : 6 channels
Channel positions : Front: L C R, Side: L R, LFE
Sampling rate : 48.0 KHz
Bit depth : 24 bits
Compression mode : Lossy
Stream size : 1 019 MiB (13%)
Title : en
Language : English

Text #1
ID : 4
Format : UTF-8
Codec ID : S_TEXT/UTF8
Codec ID/Info : UTF-8 Plain Text
Title : cz
Language : Czech

Text #2
ID : 5
Format : UTF-8
Codec ID : S_TEXT/UTF8
Codec ID/Info : UTF-8 Plain Text
Title : sk
Language : Slovak 
                     
                                 
Link.............: IMDb - http://www.imdb.com/title/tt1396218                                   
                         RATiNG: 5.9/10
                   CSFD - http://www.csfd.cz/film/285725
                          60%


Obrázok

Obrázok

Kód: Vybrať všetko

http://share-rapid.com/stahuj/kokx8a84
http://share-rapid.com/stahuj/t2f2v0g8
http://share-rapid.com/stahuj/r70rauf5
http://share-rapid.com/stahuj/kiu374t0
http://share-rapid.com/stahuj/ozd5l255
http://share-rapid.com/stahuj/mjs31e08
http://share-rapid.com/stahuj/ktn52pk7
http://share-rapid.com/stahuj/st6p2uaj
Všechny linky jsou bez hesla !!!
Linky jsou kombinované, když mají stejnou velikost !!!
V případě problémů ,mě kontaktujte SS / PM !!!
Všechny mé uploady jsou baleny RARem !!!

Napísať odpoveď

Kto je prítomný

Užívatelia prezerajúci toto fórum: Žiadny pripojení užívatelia a 1 neregistrovaný