J. Edgar (2011)

Filmy v Blu-Ray kvalite
Napísať odpoveď
Užívateľov profilový obrázok
SoundBoy
Registrovaní užívatelia
Príspevky: 216
Dátum registrácie: 25 Dec 2008, 19:22

J. Edgar (2011)

Príspevok od užívateľa SoundBoy » 23 Feb 2012, 11:45

Obrázok
    J. Edgar (2011)
    J.Edgar (2011) [1080p] BluRay x264-SPARKS by warexpert


Obrázok
Obrázok


Obrázok
Obrázok


Obrázok
    J. Edgar (2011)

    JAZYK: anglický
    TITULKY: české (přiložené), anglické
    ŽÁNR: drama / životopisný / krimi / historický
    ZEMĚ PŮVODU: USA
    ROK VYDÁNÍ: 2011
    DÉLKA: 137 minut
    REŽIE: Clint Eastwood
    HRAJÍ: Leonardo DiCaprio, Naomi Watts, Judi Dench, Armie Hammer, Josh Lucas, Dermot Mulroney, Jeffrey Donovan, Denis O'Hare,
    Stephen Root, Zach Grenier, Damon Herriman, Lea Thompson, Ken Howard, Josh Hamilton, Jessica Hecht, Geoff Pierson, Michael O'Neill

    OFICIÁLNÍ STRÁNKY:

    Kód: Vybrať všetko

    http://jedgarmovie.com/

    TRAILER:

    Kód: Vybrať všetko

    http://imdb.com/video/imdb/vi1849990169/

    ODKAZ NA ČSFD:

    Kód: Vybrať všetko

     http://csfd.cz/film/280079/

    ODKAZ NA IMDB:

    Kód: Vybrať všetko

    http://imdb.com/title/tt1616195/

    KVALITA VIDEA: formát: AVC, bit rate: 8 783 Kbps, 1920x800 pixelů, poměr stran: 2.40:1
    KVALITA ZVUKU: formát: DTS, bit rate: 1 510 Kbps, 6 kanálů, sampling rate: 48,0 KHz


    OBSAH:
    J. Edgar Hoover (Leonardo DiCaprio) založil v roce 1935 FBI (Federální úřad pro vyšetřování) a současně byl i jeho ředitelem téměř 40 let až do své smrti v roce 1972 a prakticky dovedl FBI k její nynější podobě.
    Byl to svým způsobem i nejmocnější muž v USA, jelikož bylo všeobecně známo, že má ve svém trezoru špínu na téměř každou celebritu nebo vyššího politika.
    Za svého života bojoval s nejrůznějšími druhy organizovaného zločinu a také byl známý pro svoje sexuální skandály (velká obliba v nošení oblečení druhého pohlaví).
    Stál v čele zrodu centrálního systému otisků prstů a mnoha dalších. Mimo jiné se o něm vědělo, že mnohdy sám zákony překračoval.

    MEDIA INFO:

    General
    Unique ID: 193301395609288420521567330136728718097 (0x916C7E9EBBB654769A82267D971ACB11)
    Complete name: J.Edgar.2011.1080p.BluRay.x264-SPARKS.mkv
    Format: Matroska
    Format version: Version 2
    File size: 9.84 GiB
    Duration: 2h 16mn
    Overall bit rate: 10.3 Mbps
    Encoded date: UTC 2012-02-11 00:38:18
    Writing application: mkvmerge v5.1.0 ('And so it goes';) built on Nov 28 2011 23:58:28
    Writing library: libebml v1.2.3 + libmatroska v1.3.0

    Video
    ID: 1
    Format: AVC
    Format/Info: Advanced Video Codec
    Format profile: High@L4.1
    Format settings, CABAC: Yes
    Format settings, ReFrames: 5 frames
    Muxing mode: Header stripping
    Codec ID: V_MPEG4/ISO/AVC
    Duration: 2h 16mn
    Bit rate: 8 783 Kbps
    Width: 1 920 pixels
    Height: 800 pixels
    Display aspect ratio: 2.40:1
    Frame rate: 23.976 fps
    Color space: YUV
    Chroma subsampling: 4:2:0
    Bit depth: 8 bits
    Scan type: Progressive
    Bits/(Pixel*Frame): 0.238
    Stream size: 8.20 GiB (83%)
    Writing library: x264 core 120 r2164 da19765
    Encoding settings: cabac=1 / ref=5 / deblock=1:0:0 / analyse=0x3:0x133 / me=umh / subme=7 / psy=1 / psy_rd=1.00:0.00 / mixed_ref=1 / me_range=16 / chroma_me=1 / trellis=1 / 8x8dct=1 / cqm=0 / deadzone=21,11 / fast_pskip=0 / chroma_qp_offset=-2 / threads=18 / sliced_threads=0 / nr=0 / decimate=1 / interlaced=0 / bluray_compat=0 / constrained_intra=0 / bframes=3 / b_pyramid=2 / b_adapt=1 / b_bias=0 / direct=1 / weightb=1 / open_gop=0 / weightp=2 / keyint=250 / keyint_min=23 / scenecut=40 / intra_refresh=0 / rc_lookahead=40 / rc=2pass / mbtree=1 / bitrate=8783 / ratetol=1.0 / qcomp=0.60 / qpmin=0 / qpmax=69 / qpstep=4 / cplxblur=20.0 / qblur=0.5 / ip_ratio=1.40 / aq=1:1.00
    Language: English
    Default: Yes
    Forced: No

    Audio
    ID: 2
    Format: DTS
    Format/Info: Digital Theater Systems
    Muxing mode: Header stripping
    Codec ID: A_DTS
    Duration: 2h 16mn
    Bit rate mode: Constant
    Bit rate: 1 510 Kbps
    Channel(s): 6 channels
    Channel positions: Front: L C R, Side: L R, LFE
    Sampling rate: 48.0 KHz
    Bit depth: 24 bits
    Compression mode: Lossy
    Stream size: 1.44 GiB (15%)
    Language: English
    Default: Yes
    Forced: No

    Text
    ID: 3
    Format: UTF-8
    Codec ID: S_TEXT/UTF8
    Codec ID/Info: UTF-8 Plain Text
    Language: English
    Default: Yes
    Forced: No



Obrázok

Obrázok

Kód: Vybrať všetko

http://download.hellshare.cz/j-edgar-2011-1080p/j-edgar-2011-1080p-part1-rar/5426809
http://download.hellshare.cz/j-edgar-2011-1080p/j-edgar-2011-1080p-part2-rar/5443852
http://download.hellshare.cz/j-edgar-2011-1080p/j-edgar-2011-1080p-part3-rar/5445177
http://download.hellshare.cz/j-edgar-2011-1080p/j-edgar-2011-1080p-part4-rar/5447937
http://download.hellshare.cz/j-edgar-2011-1080p/j-edgar-2011-1080p-part5-rar/5449122
http://download.hellshare.cz/j-edgar-2011-1080p/j-edgar-2011-1080p-part6-rar/5450583



Obrázok
    NO PASSWORD

Obrázok
  • We are anonymous.
    We are Legion.
    United as ONE.
    Divided by zero.
    We do not forgive Censorship.
    We do not forget Oppression.
    US SENATE
    Expect us!

Napísať odpoveď

Kto je prítomný

Užívatelia prezerajúci toto fórum: Žiadny pripojení užívatelia a 1 neregistrovaný