Legenda o sovích strážcích / Legend of the Guardians..(2010)

Filmy v Blu-Ray kvalite
Napísať odpoveď
Užívateľov profilový obrázok
SoundBoy
Registrovaní užívatelia
Príspevky: 216
Dátum registrácie: 25 Dec 2008, 19:22

Legenda o sovích strážcích / Legend of the Guardians (1080p)

Príspevok od užívateľa SoundBoy » 06 Mar 2011, 17:13

Legenda o sovích strážcích / Legend of the Guardians (1080p) 2010 - Cz


Obrázok
Obrázok


Obrázok
    Animovaný / Dobrodružný / Fantasy


    http://www.csfd.cz/film/241752-legenda-o-sovich-strazcich/
    Jazyk: Cz / An
    Titulky: Cz /An
    USA / Austrálie, 2010, 90 min
    Režie: Zack Snyder
    Hrají: Jim Sturgess, Geoffrey Rush, Rachael Taylor, David Wenham, Emilie de Ravin,
    Hugo Weaving, Ryan Kwanten, Helen Mirren, Miriam Margolyes,
    Jay Laga'aia, Jacek Koman, Sam Neill

    Hlavní postavou je mladý soví kluk Soren, který je okouzlen historkami svého otce o strážcích Ga’Hoolu - mýtické skupině okřídlených bojovníků.
    Ti bojovali proti zlým Čistým, jak si sami říkají, ve velké bitvě za záchranu všech druhů sov.
    Zatímco Soren sní o tom, že jednoho dne se přidá ke svým hrdinům, jeho starší bratr Kludd se té představě jen vysmívá a touží jen po lovu,
    létání a být otcovým oblíbencem místo Sorena.
    Kluddova žárlivost má ale hrůzné následky - oba soví sourozenci vypadnou z hnízda na vrcholu stromu přímo do spárů Čistých.
    Teď je na Sorenovi, aby se pokusil o odvážný únik s pomocí dalších mladých soviček. Společně letí přes moře i skrze mlhy,
    aby našli Velký strom - domov legendárních sovích Strážců Ga’Hoolu,
    jenž jsou jedinou nadějí na vítězství v bitvě proti Čistým a na záchranu sovích království.



Obrázok
    Legend.of.the.Guardians.The.Owls.of.Ga'Hoole.2010.1080p.BluRay.x264-EbP.CZ-GOGO\Legend.of.the.Guardians.The.Owls.of.Ga'Hoole.2010.1080p.BluRay.x264-EbP.CZ-GOGO.mkv
    Format: Matroska
    File size: 8.90 GiB
    Duration: 1h 36mn
    Overall bit rate: 13.2 Mbps
    Movie name: Legend.of.the.Guardians.The.Owls.of.Ga'Hoole.2010.1080p.BluRay.x264-EbP.CZ-GOGO
    Encoded date: UTC 2011-01-25 13:42:06
    Writing application: mkvmerge v4.0.0 ('The Stars were mine' ) built on Jun 5 2010 17:44:09
    Writing library: libebml v1.0.0 + libmatroska v1.0.0


    Video

    Format: AVC
    Format/Info: Advanced Video Codec
    Format profile: High@L4.1
    Format settings, CABAC: Yes
    Format settings, ReFrames: 5 frames
    Codec ID: V_MPEG4/ISO/AVC
    Duration: 1h 36mn
    Bit rate: 10.5 Mbps
    Width: 1 920 pixels
    Height: 816 pixels
    Display aspect ratio: 2.35:1
    Frame rate: 23.976 fps
    Color space: YUV
    Chroma subsampling: 4:2:0
    Bit depth: 8 bits
    Scan type: Progressive
    Bits/(Pixel*Frame): 0.280
    Stream size: 6.83 GiB (77%)

    Audio #1

    Format: AC-3
    Format/Info: Audio Coding 3
    Mode extension: CM (complete main)
    Codec ID: A_AC3
    Duration: 1h 36mn
    Bit rate mode: Constant
    Bit rate: 640 Kbps
    Channel(s): 6 channels
    Channel positions: Front: L C R, Side: L R, LFE
    Sampling rate: 48.0 KHz
    Bit depth: 16 bits
    Stream size: 443 MiB (5%)
    Title: DD 5.1 CZ@640Kbps_audio z Blu-ray
    Language: Czech


Obrázok
Obrázok

Kód: Vybrať všetko

http://download.cz.hellshare.com/legenda-o-sovich-strazcich-1080p-2010-cz-part1.rar/2479608
http://download.cz.hellshare.com/legenda-o-sovich-strazcich-1080p-2010-cz-part2.rar/2479967
http://download.cz.hellshare.com/legenda-o-sovich-strazcich-1080p-2010-cz-part3.rar/2480315
http://download.cz.hellshare.com/legenda-o-sovich-strazcich-1080p-2010-cz-part4.rar/2480528
http://download.cz.hellshare.com/legenda-o-sovich-strazcich-1080p-2010-cz-part5.rar/2480719
http://download.cz.hellshare.com/legenda-o-sovich-strazcich-1080p-2010-cz-part6.rar/2480904



Obrázok

Kód: Vybrať všetko

no password

Napísať odpoveď

Kto je prítomný

Užívatelia prezerajúci toto fórum: Žiadny pripojení užívatelia a 2 neregistrovaní