predator 1-2 avi cz

Filmy s SK/CZ dabingom...
Napísať odpoveď
laci58888
Registrovaní užívatelia
Príspevky: 476
Dátum registrácie: 22 Máj 2013, 16:17

predator 1-2 avi cz

Príspevok od užívateľa laci58888 » 13 Júl 2014, 10:44

Predátor/Predator(1987)

Obrázok


Information:


Formát: AVI
Formát/Info: Audio Video Interleave
Velikost souboru: 899 MiB
Duration: 1h 42mn
Celkový BitRate: 957 Kbps
Použitý software: VirtualDubMod 1.5.10.2 (build 2540/release)
Enkódoval: VirtualDubMod build 2540/release

Video
Formát: MPEG-4 Visual
Format profile: Streaming Video@L1
Format settings, BVOP: Ano
Format settings, QPel: Ne
Format settings, GMC: No warppoints
Format settings, Matrix: Default
Codec ID: XVID
Codec ID/Hint: XviD
Duration: 1h 42mn
Bit rate: 819 Kbps
Šířka: 576pixely
Výška: 304pixely
Poměr stran: 1.895
Frame rate: 25,000 fps
Rozlišení: 24 bits
Colorimetry: 4:2:0
Scan type: Progressive
Bits/(Pixel*Frame): 0.187
Stream size: 599 MiB (86%)
Enkódoval: XviD 1.1.0 (UTC 2005-11-22)

Audio
Formát: MPEG Audio
Format version: Version 1
Format profile: Layer 3
Codec ID: 55
Codec ID/Hint: MP3
Duration: 1h 42mn
Bit rate mode: Variable
Bit rate: 125 Kbps
Nominal bit rate: 128 Kbps
Kanál(y): 2 kanály
Sampling rate: 48,0 KHz
Rozlišení: 16 bits
Stream size: 91,5 MiB (13%)
Alignment: Aligned on interleaves
Interleave, duration: 24 ms (0,60 video frame)
Interleave, preload duration: 147 ms
Enkódoval: LAME3.90.
Nastavení enkoderu: ABR
Jazyk: Czech

Jazyk: cz
Titulky: ne
Rok vydání: USA, 1987
Délka: 107 min
Žánr: Akční / Horor / Sci-Fi / Thriller



V džungli přistane kosmická loď,na jejíž palubě je dokonale vybavený mimozemský nimrod.Lovnou zvěří se pro něj stávají nejen dravci obývající džnugli,ale také lidé.To je prolog slavného filmu,který je oblíbenou žánrovou kombinací akčních příběhů o amerických komandos,hororu a SF.Oddíl pod vedením zkušeného majora Dutche Schaefera je vysazen na nepřátelském území,kde má uprostřed džungle vysvobodit několik amerických vojáků ze zajetí partyzánů.Po úspěšně provedené akci se však američtí vojáci musí utkat s daleko tajemnějším a nebezpečnějším nepřítelem.Džungle se mění v past,z níž není úniku a američtí hrdinové poprvé v životě poznávají,co je to strach.Film,který dnes již bývá řazen ke klasice žánru,zaujme především napětím a houstnoucí atmosférou strachu,kdy jsou američtí supermani pomalu vyváděni z rutinní statečnosti a rovnováhy.Stejně zdařilé je i pojetí mimozemšťana,neostré,děsivě tajuplné postavy,využívající dokonalé mimikry,jehož přítomnost signalizuje pouze termografie jeho pohledu.Teprve v závěrečné scéně se na scéně objevují v celé hrůznosti dokonalé masky Stana Winstona.


Režie:
John McTiernan

Hrají:
Arnold Schwarzenegger, Carl Weathers, Elpidia Carrillo, Bill Duke, Jesse Ventura, Sonny Landham, Richard Chaves, R. G. Armstrong, Shane Black, Kevin Peter Hall, Sven-Ole Thorsen



Download:


Fastshare

Kód: Vybrať všetko

http://www.fastshare.cz/3354197/predator-1-1987-cz-dab-spalovac.avi



Predator 2(1990)

Obrázok

Info:



Jazyk: cz
Titulky: ne
Rok vydání: USA, 1990
Délka: 104 min
Žánr: Akční / Sci-Fi / Thriller / Horor

Formát: AVI
Formát/Info: Audio Video Interleave
Velikost souboru: 700 MiB
Duration: 1h 43mn
Celkový BitRate: 945 Kbps
Použitý software: VirtualDubMod 1.5.4.1 (build 2178/release)
Enkódoval: VirtualDubMod build 2178/release

Video
Formát: MPEG-4 Visual
Format profile: Streaming Video@L1
Format settings, BVOP: Ano
Format settings, QPel: Ne
Format settings, GMC: No warppoints
Format settings, Matrix: Custom
Codec ID: XVID
Codec ID/Hint: XviD
Duration: 1h 43mn
Bit rate: 812 Kbps
Šířka: 608pixely
Výška: 336pixely
Poměr stran: 16/9
Frame rate: 25,000 fps
Rozlišení: 24 bits
Colorimetry: 4:2:0
Scan type: Progressive
Bits/(Pixel*Frame): 0.159
Stream size: 602 MiB (86%)
Enkódoval: XviD 1.1.0 (UTC 2005-11-22)

Audio
Formát: MPEG Audio
Format version: Version 1
Format profile: Layer 3
Codec ID: 55
Codec ID/Hint: MP3
Duration: 1h 43mn
Bit rate mode: Variable
Bit rate: 119 Kbps
Minimum bit rate: 128 Kbps
Kanál(y): 2 kanály
Sampling rate: 48,0 KHz
Rozlišení: 16 bits
Stream size: 88,5 MiB (13%)
Alignment: Aligned on interleaves
Interleave, duration: 24 ms (0,60 video frame)
Interleave, preload duration: 154 ms
Enkódoval: LAME3.97b
Nastavení enkoderu: ABR
Jazyk: Czech




Přichází ze vzdáleného světa,aby lovil lidi pro zábavu.Neviditelný a ozbrojený speciálními ničícími zbraněmi - nic,co bychom znali - nemilosrdně stopuje svou lidskou kořist zanechávajíc za sebou zmrzačené mrtvoly.Posledně přistál v džungli a nyní si vybral Los Angeles.Los Angeles,kde právě probíhá válka drogových gangů,je perfektní půdou pro predátorovy smrtící hrátky.Když policie nachází zmrzačená těla,poručík Mike Harrigan si myslí, že je to práce znepřátelených gangů....


Režie:
Stephen Hopkins

Hrají:
Kevin Peter Hall, Danny Glover, Gary Busey, Rubén Blades, Maria Conchita Alonso, Bill Paxton, Robert Davi, Adam Baldwin, Calvin Lockhart, Elpidia Carrillo, Lilyan Chauvin, Michael Papajohn, Abraham Alvarez, Jsu Garcia, Paul Abascal

Download:


Fastshare

Kód: Vybrať všetko

http://www.fastshare.cz/3354223/predator-2.avi

Napísať odpoveď

Kto je prítomný

Užívatelia prezerajúci toto fórum: Žiadny pripojení užívatelia a 1 neregistrovaný