Captain America: Civil War/Captain America:Občanská..(2016)

Filmy s pôvodným dabingom alebo s SK/CZ titulkami.
Napísať odpoveď
Jack86
Registrovaní užívatelia
Príspevky: 224
Dátum registrácie: 13 Mar 2009, 18:23

Captain America: Civil War/Captain America:Občanská..(2016)

Príspevok od užívateľa Jack86 » 01 Jún 2016, 14:09

Obrázok


Kód: Vybrať všetko

http://www.csfd.cz/film/368671-captain-america-obcanska-valka/prehled/
http://www.imdb.com/title/tt3498820/combined



Captain America Civil WAR 2016 1080p HD TC AC3 x264-ETRG + titulky

Kód: Vybrať všetko

Captain America Civil WAR 2016 1080p HD TC AC3 x264-ETRG
Format                      : Matroska
Format version              : Version 4 / Version 2
File size                   : 3.77 GiB
Duration                    : 2h 27mn
Overall bit rate mode       : Variable
Overall bit rate            : 3 654 Kbps
Movie name                  : Captain America Civil WAR 2016 1080p HD TC AC3 x264-ETRG
Encoded date                : UTC 2016-05-10 01:15:49
Writing application         : mkvmerge v7.2.0 ('On Every Street') 64bit built on Sep 13 2014 15:52:10
Writing library             : libebml v1.3.0 + libmatroska v1.4.1

Video
ID                          : 1
Format                      : AVC
Format/Info                 : Advanced Video Codec
Format profile              : High@L4
Format settings, CABAC      : Yes
Format settings, ReFrames   : 4 frames
Codec ID                    : V_MPEG4/ISO/AVC
Duration                    : 2h 27mn
Bit rate mode               : Variable
Bit rate                    : 3 460 Kbps
Maximum bit rate            : 25.1 Mbps
Width                       : 1 920 pixels
Height                      : 852 pixels
Display aspect ratio        : 2.25:1
Frame rate mode             : Constant
Frame rate                  : 29.970 (30000/1001) fps
Color space                 : YUV
Chroma subsampling          : 4:2:0
Bit depth                   : 8 bits
Scan type                   : Progressive
Bits/(Pixel*Frame)          : 0.071
Stream size                 : 3.57 GiB (95%)
Title                       : ETRG
Writing library             : x264 core 148 r2665 a01e339
Encoding settings           : cabac=1 / ref=4 / deblock=1:0:-1 / analyse=0x3:0x133 / me=umh / subme=10 / psy=1 / psy_rd=1.00:0.15 / mixed_ref=1 / me_range=32 / chroma_me=1 / trellis=2 / 8x8dct=1 / cqm=0 / deadzone=21,11 / fast_pskip=1 / chroma_qp_offset=-3 / threads=12 / lookahead_threads=2 / sliced_threads=0 / nr=0 / decimate=1 / interlaced=0 / bluray_compat=0 / constrained_intra=0 / bframes=8 / b_pyramid=2 / b_adapt=2 / b_bias=0 / direct=3 / weightb=1 / open_gop=0 / weightp=2 / keyint=300 / keyint_min=30 / scenecut=40 / intra_refresh=0 / rc_lookahead=250 / rc=crf / mbtree=1 / crf=16.0 / qcomp=0.65 / qpmin=0 / qpmax=69 / qpstep=4 / vbv_maxrate=25080 / vbv_bufsize=25000 / crf_max=0.0 / nal_hrd=vbr / filler=0 / ip_ratio=1.40 / aq=3:1.00
Language                    : English
Default                     : No
Forced                      : No

Audio
ID                          : 2
Format                      : AC-3
Format/Info                 : Audio Coding 3
Mode extension              : CM (complete main)
Format settings, Endianness : Big
Codec ID                    : A_AC3
Duration                    : 2h 27mn
Bit rate mode               : Constant
Bit rate                    : 192 Kbps
Channel(s)                  : 2 channels
Channel positions           : Front: L R
Sampling rate               : 44.1 KHz
Frame rate                  : 28.711 fps (1536 spf)
Compression mode            : Lossy
Stream size                 : 203 MiB (5%)
Title                       : ETRG
Language                    : English
Default                     : Yes
Forced                      : No


Kód: Vybrať všetko

http://www.fastshare.cz/6094016/captain-america-civil-war-2016-1080p-hd-tc-ac3-x264-etrg.mkv
http://www.fastshare.cz/6094017/captain-america-civil-war-2016-1080p-hd-tc-ac3-x264-etrg.srt


Kód: Vybrať všetko

http://file-share.top/file/206194/captain-america-civil-war-2016-1080p-hd-tc-ac3-x264-etrg-mkv
http://file-share.top/file/206195/captain-america-civil-war-2016-1080p-hd-tc-ac3-x264-etrg-srt


Kód: Vybrať všetko

http://www.fastshare.cz/6094062/th0861wcac.rar


Kód: Vybrať všetko

http://file-share.top/file/216199/th0861wcac-rar


Kód: Vybrať všetko

http://www.fastshare.cz/6093840/th0861wcac.part1.rar
http://www.fastshare.cz/6093850/th0861wcac.part2.rar


Kód: Vybrať všetko

http://file-share.top/file/206133/th0861wcac-part1-rar
http://file-share.top/file/206137/th0861wcac-part2-rar




Upload 3% na opravu dat

no pass
SNADNÉ PŘIVYDĚLÁNÍ NA INTERNETU A OPRAVY ATD. Jack.add@seznam.cz
LINKY MŮŽETE VOLNĚ ŠÍŘIT
REGISTRACE: http://sharerapid.biz

Napísať odpoveď

Kto je prítomný

Užívatelia prezerajúci toto fórum: Žiadny pripojení užívatelia a 1 neregistrovaný