Central Intelligence / Centrální inteligence (2016)

Filmy s pôvodným dabingom alebo s SK/CZ titulkami.
Napísať odpoveď
Jack86
Registrovaní užívatelia
Príspevky: 224
Dátum registrácie: 13 Mar 2009, 18:23

Central Intelligence / Centrální inteligence (2016)

Príspevok od užívateľa Jack86 » 26 Júl 2016, 20:35

Obrázok


Kód: Vybrať všetko

http://www.csfd.cz/film/397119-centralni-inteligence/prehled/
http://www.imdb.com/title/tt1489889/combined



Central.Intelligence.2016.1080p.HC.KORSUB.WEBRip.x264.AAC2.0-STUTTERSHIT + titulky


Audio: EN
Titulky: CZ


Kód: Vybrať všetko

Central.Intelligence.2016.1080p.HC.KORSUB.WEBRip.x264.AAC2.0-STUTTERSHIT
Format                      : MPEG-4
Format profile              : Base Media
Codec ID                    : isom (isom/iso2/avc1/mp41)
File size                   : 3.74 GiB
Duration                    : 1h 51mn
Overall bit rate            : 4 791 Kbps
Movie name                  : Central.Intelligence.2016.1080p.HC.WEBRip.x264.AAC2.0-STUTTERSHIT
Writing application         : Lavf57.19.100
Comment                     : Central.Intelligence.2016.1080p.HC.WEBRip.x264.AAC2.0-STUTTERSHIT

Video
ID                          : 1
Format                      : AVC
Format/Info                 : Advanced Video Codec
Format profile              : High@L4.1
Format settings, CABAC      : Yes
Format settings, ReFrames   : 4 frames
Codec ID                    : avc1
Codec ID/Info               : Advanced Video Coding
Duration                    : 1h 51mn
Bit rate                    : 4 500 Kbps
Width                       : 1 920 pixels
Height                      : 796 pixels
Display aspect ratio        : 2.40:1
Frame rate mode             : Constant
Frame rate                  : 23.976 (23976/1000) fps
Color space                 : YUV
Chroma subsampling          : 4:2:0
Bit depth                   : 8 bits
Scan type                   : Progressive
Bits/(Pixel*Frame)          : 0.123
Stream size                 : 3.56 GiB (95%)
Title                       : Central.Intelligence.2016.1080p.HC.WEBRip.x264.AAC2.0-STUTTERSHIT
Writing library             : x264 core 148 r2597M e86f3a1
Encoding settings           : cabac=1 / ref=4 / deblock=1:0:0 / analyse=0x3:0x113 / me=umh / subme=8 / psy=1 / psy_rd=1.00:0.00 / mixed_ref=1 / me_range=16 / chroma_me=1 / trellis=1 / 8x8dct=1 / cqm=0 / deadzone=21,11 / fast_pskip=1 / chroma_qp_offset=-2 / threads=40 / lookahead_threads=6 / sliced_threads=0 / nr=0 / decimate=1 / interlaced=0 / bluray_compat=0 / constrained_intra=0 / bframes=3 / b_pyramid=2 / b_adapt=2 / b_bias=0 / direct=3 / weightb=1 / open_gop=0 / weightp=2 / keyint=250 / keyint_min=23 / scenecut=40 / intra_refresh=0 / rc_lookahead=50 / rc=abr / mbtree=1 / bitrate=4500 / ratetol=1.0 / qcomp=0.60 / qpmin=0 / qpmax=69 / qpstep=4 / ip_ratio=1.40 / aq=1:1.00

Audio
ID                          : 2
Format                      : AAC
Format/Info                 : Advanced Audio Codec
Format profile              : LC
Codec ID                    : 40
Duration                    : 1h 51mn
Bit rate mode               : Constant
Bit rate                    : 224 Kbps
Channel(s)                  : 2 channels
Channel positions           : Front: L R
Sampling rate               : 48.0 KHz
Frame rate                  : 46.875 fps (1024 spf)
Compression mode            : Lossy
Stream size                 : 179 MiB (5%)
Title                       : Central.Intelligence.2016.1080p.HC.WEBRip.x264.AAC2.0-STUTTERSHIT
Language                    : English
Default                     : Yes
Alternate group             : 1


Kód: Vybrať všetko

http://www.fastshare.cz/6244859/central.intelligence.2016.1080p.hc.korsub.webrip.x264.aac2.0-stuttershit.mp4
http://www.fastshare.cz/6244860/central.intelligence.2016.1080p.hc.korsub.webrip.x264.aac2.0-stuttershit.srt


Kód: Vybrať všetko

https://sdilej.cz/7900824/Central.Intelligence.2016.1080p.HC.KORSUB.WEBRip.x264.AAC2.0-STUTTERSHIT.srt
https://sdilej.cz/7900879/Central.Intelligence.2016.1080p.HC.KORSUB.WEBRip.x264.AAC2.0-STUTTERSHIT.mp4


Kód: Vybrať všetko

http://www.fastshare.cz/6244843/tsrwch0861enlilc.rar


Kód: Vybrať všetko

https://sdilej.cz/7900770/TSRWCH0861enlIlC.rar


Kód: Vybrať všetko

http://fastshare.cz/6244405/tsrwch0861enlilc.part2.rar
http://www.fastshare.cz/6244785/tsrwch0861enlilc.part1.rar


Kód: Vybrať všetko

https://sdilej.cz/7900740/TSRWCH0861enlIlC.part1.rar
https://sdilej.cz/7900747/TSRWCH0861enlIlC.part2.rar



Upload 3% na opravu dat

no pass
SNADNÉ PŘIVYDĚLÁNÍ NA INTERNETU A OPRAVY ATD. Jack.add@seznam.cz
LINKY MŮŽETE VOLNĚ ŠÍŘIT
REGISTRACE: http://sharerapid.biz

Napísať odpoveď

Kto je prítomný

Užívatelia prezerajúci toto fórum: Žiadny pripojení užívatelia a 1 neregistrovaný